1989 taylor swift taylors version

There's a big difference between financial advisers and Taylor Swift. It's not what you think it is. By clicking

Sep 20, 2023 · Taylor Swift announced "1989 (Taylor's Version)" during her final Eras Tour show on the US leg. "The 1989 album changed my life in countless ways," she also wrote in a statement shared online. "To ... Your travel rewards credit card can grant you presale ticket access, the ability to purchase VIP packages and more for a variety of events, experiences and locations. Editor’s note...

Did you know?

20-Sept-2023 ... Here's everything we know about Taylor Swift's fourth re-recorded album, '1989 (Taylor's Version),' from its release date to easter eggs and&nb...1989 Song Bundle, 1989 Merch, Taylor's Version, 1989 png, 1989 font, Swiftie Merch, Gifts for Her, 1989 svg, 1989 tv, 1989 sweatshirt. (167) $5.99. Digital Download. 1989 version era swift- digital embroidery files instant download machine embroidery PES JEF HUS file. Embroidery patterns.27-Oct-2023 ... On this day 9 years ago, Taylor Swift released her fifth studio album, '1989'. And on this day in 2023, Swifties are being treated to her ...

Taylor Swift1989 (Taylor's Version) Exclusives! Listen to content by Taylor Swift. The 1989 Chevrolet 350 small-block engine is a V8 that produced a peak power of 240 horsepower and 340 foot-pounds of torque in its most common installation trim in the Chevrolet C...💜 Speak Now (Taylor's Version) 7/7 💜💕 Midnights is out everywhere!Buy/Download/Stream ‘Midnights’: https://taylor.lnk.to/taylorswiftmidnightsSubscribe me:...1989 (Taylor's Version) [Deluxe] - Album by Taylor Swift - Apple Music. Taylor Swift. POP · 2023. When Taylor Swift announced that 1989 (Taylor’s Version) …

1989 (Taylor's Version) (2023) Speak Now (Taylor's Version) is the third re-recorded album by the American singer-songwriter Taylor Swift, released on July 7, 2023, by …Days after Speak Now (Taylor's Version) was released in July 2023, her music video for "I Can See You" had fans buzzing about 1989 clues. The video starts with a close up of Swift's red lips ...Four of the songs on "Lover" are under three minutes. We can thank the modern music marketplace. Taylor Swift released her new album Lover today. It might have been more apt to nam... ….

Reader Q&A - also see RECOMMENDED ARTICLES & FAQs. 1989 taylor swift taylors version. Possible cause: Not clear 1989 taylor swift taylors version.

Swift revealed Wednesday that 1989 (Taylor’s Version) will release Oct. 27. The singer announced the news during the sixth night of her Eras Tour shows at SoFi …1989 (Taylor's Version) @taylorswift. All the GIFs. Use Our App. Find the best & newest featured Taylor Swift GIFs. Search, discover and share your favorite GIFs. The best GIFs are on GIPHY. GIPHY is the platform that animates your world. Find the GIFs, Clips, and Stickers that make ...Analyzed: Taylor Swift / 1989 (Taylor's Version) (Deluxe)-----DR Peak RMS Duration Track----- DR5 -0.01 dB -6.81 dB 3:33 01-Welcome To New York (Taylor's Version) DR7 -0.01 dB -8.25 dB 3:52 02-Blank Space (Taylor's Version) DR4 -0.01 dB -5.79 dB 3:51 03-Style (Taylor's Version) ...

Not long ago, the kids and I were bopping along to a Taylor Swift beat when my son paused and shouted over the song, “Wait. Did she just say ‘gay’?&am...💜 Speak Now (Taylor's Version) 7/7 💜💕 Midnights is out everywhere!Buy/Download/Stream ‘Midnights’: https://taylor.lnk.to/taylorswiftmidnightsSubscribe me:...

koreanz Oct 26, 2023 · Watch the official lyric video for “Blank Space (Taylor's Version)” by Taylor Swift, from ‘1989 (Taylor’s Version)’.Buy/download/stream ‘1989 (Taylor’s ... weather 77099shameless turkce dublaj They'll tell you I'm insane (Insane) But I've got a blank space, baby. And I'll write your name. [Bridge] Boys only want love if it's torture. Don't say I didn't, say I didn't warn ya. Boys only ...On the final night of the Eras Tour’s first U.S. leg, Taylor Swift announced the release date for her fourth re-recorded album, revealing that 1989 (Taylor's Version) is set to drop on October ... room for rent rotten tomatoes It's not just you: Spotify shuffle isn't random at all. I may be listening to Taylor Swift’s Midnights on repeat this month, but I enjoy a good shuffle like anyone else. It’s a gre...Taylor Swift will perform at National Stadium in Singapore for six nights on her international Eras Tour. ... Then, she performed a mashup of "Clean" from "1989 (Taylor's Version)" … set an alarm for 2 30portmanteau for a certain self taken video on a smartphonejill tucker jeopardy gender Sep 20, 2023 · Taylor Swift Announces '1989 (Taylor's Version),' Receives 8-Minute Deafening Standing Ovation at Last L.A. Show Karlie Kloss Attends Taylor Swift's Final Eras Tour Concert in L.A. the first watch near me 27-Oct-2023 ... On this day 9 years ago, Taylor Swift released her fifth studio album, '1989'. And on this day in 2023, Swifties are being treated to her ... zillow rotterdam nytaylor swift last stopthe weather tonight and tomorrow No matter how you Style it, Taylor Swift‘s 1989 (Taylor’s Version) is a juggernaut. The re-recorded set debuted with 1.653 million equivalent album units (EAUs) in the United States in the ...